Loading...
Error
 
Мини-чат
 

Скачать торрент Кровь-С: Последняя тьма / Gekijouban Blood-C: The Last Dark (Сиотани Наоёси) [Movie][RAW][RUS(int) + JAP + SUB(int)][2012 г., приключения, мистика, драма][BDRemux][1080p] MVO [3df_voice]

 
Автор Сообщение

ReBootRus

post 26-Авг-20 18:29

pic
Кровь-С: Последняя тьма
Gekijouban Blood-C: The Last Dark

Год выпуска: 2012
Страна: Япония
Жанр: приключения, мистика, драма
Тип: Movie
Продолжительность: 01:46:03
Режиссер: Сиотани Наоёси
Студия: Production I.G
Озвучка: Многоголосая, студия 3df_voice (г. Тула), 2020г.
На русский роли озвучивали: Глеб Янышев, Мария Яковлева, Евгений Бородаенко, Екатерина Филина, Александр Аносов, Ольга Кужельная, Никита Кузнецов, Альбина Штанина, Андрей Соболевский, Татьяна Серебрякова, Евгения Андрианова, и Павел Тимонин.
Сведение и мастеринг: Александр Шмат.
pic
Субтитры: Русские
YakuSub Studio (.ass) - полные/вспомогательные (Редактор: Brasco & Harushechka, Оформление: Helge, Перевод песен: mbillika, Переводчик: Nika_Elrik)
Jenia aka Zub (.ass)
Описание:
Новый век несет новые опасности. Цифровое рабство, ещё недавно бывшее воспаленной фантазией темных сил, становится реальностью. Среди тех, кто борется с ним — группа Сайрат, пытающаяся раскрыть подноготную человека по имени Фумито Нанахара, деятеля, подмявшего под себя Токио, чье политическое влияние не ограничивается рамками закона. И в момент, когда кажется, что кровавый кризис неминуем, на сцену выходит Сая — японская школьница с мечом, когда-то лишившаяся всего, что ей было дорого в жизни, и теперь желающая только одного: отомстить.
Информационные ссылки: AniDB || World Art || MAL || SHIKIMORI
Качество: BDRemux 1080p
Тип видео: без хардсаба
Формат: mkv
Видео: H.264/AVC, 8-bit, 1920x1080 (16:9), 23,976 кадр/с, 36,4 Мбит/с
Аудио RUS 3df_voice: FLAC, 48 kHz, 763 Кбит/с, 2 ch
Аудио JAP: DTS-HD, 48 kHz, 3975 Кбит/с, 6 ch
Аудио JAP: PCM, 48 kHz, 2304 Кбит/с, 2 ch
Ссылка на звуковую дорогу в озвучке 3df_voice (формат AAC)
pic
Скриншоты
Подробные тех. данные
MediaInfo

Код:

Общее
Уникальный идентификатор                 : 23492264758720947884116130434919659563 (0x11AC7213E460B2D52798F73E382F782B)
Полное имя                               : Gekijouban Blood-C. The Last Dark BDRemux 1080p [3df_voice].mkv
Формат                                   : Matroska
Версия формата                           : Version 4
Размер файла                             : 32,2 Гбайт
Продолжительность                        : 1 ч. 46 м.
Режим общего битрейта                    : Переменный
Общий поток                              : 43,4 Мбит/сек
Дата кодирования                         : UTC 2020-08-25 11:06:02
Программа кодирования                    : mkvmerge v44.0.0 ('Domino') 64-bit
Библиотека кодирования                   : libebml v1.3.10 + libmatroska v1.5.2

Видео
Идентификатор                            : 1
Формат                                   : AVC
Формат/Информация                        : Advanced Video Codec
Профиль формата                          : [email protected]
Настройки формата                        : CABAC / 4 Ref Frames
Параметр CABAC формата                   : Да
Параметр RefFrames формата               : 4 кадра
Идентификатор кодека                     : V_MPEG4/ISO/AVC
Продолжительность                        : 1 ч. 46 м.
Вид битрейта                             : Переменный
Битрейт                                  : 36,4 Мбит/сек
Максимальный битрейт                     : 38,0 Мбит/сек
Ширина                                   : 1 920 пикселей
Высота                                   : 1 080 пикселей
Соотношение сторон                       : 16:9
Режим частоты кадров                     : Постоянный
Частота кадров                           : 23,976 (24000/1001) кадра/сек
Цветовое пространство                    : YUV
Субдискретизация насыщенности            : 4:2:0
Битовая глубина                          : 8 бит
Тип развёртки                            : Прогрессивная
Бит/(Пиксели*Кадры)                      : 0.732
Размер потока                            : 26,9 Гбайт (84%)
Язык                                     : Japanese
Default                                  : Да
Forced                                   : Нет

Аудио #1
Идентификатор                            : 2
Формат                                   : FLAC
Формат/Информация                        : Free Lossless Audio Codec
Идентификатор кодека                     : A_FLAC
Продолжительность                        : 1 ч. 46 м.
Вид битрейта                             : Переменный
Битрейт                                  : 763 Кбит/сек
Каналы                                   : 2 канала
Channel layout                           : L R
Частота                                  : 48,0 КГц
Частота кадров                           : 41,667 кадра/сек (1152 SPF)
Битовая глубина                          : 16 бит
Метод сжатия                             : Без потерь
Размер потока                            : 579 Мбайт (2%)
Заголовок                                : 3df_voice
Библиотека кодирования                   : libFLAC 1.3.0 (UTC 2013-05-26)
Язык                                     : Russian
Default                                  : Да
Forced                                   : Нет

Аудио #2
Идентификатор                            : 3
Формат                                   : DTS XLL
Формат/Информация                        : Digital Theater Systems
Коммерческое название                    : DTS-HD Master Audio
Идентификатор кодека                     : A_DTS
Продолжительность                        : 1 ч. 46 м.
Вид битрейта                             : Переменный
Битрейт                                  : 3 975 Кбит/сек
Каналы                                   : 6 каналов
Channel layout                           : C L R Ls Rs LFE
Частота                                  : 48,0 КГц
Частота кадров                           : 93,750 кадра/сек (512 SPF)
Битовая глубина                          : 24 бит
Метод сжатия                             : Без потерь
Размер потока                            : 2,94 Гбайт (9%)
Заголовок                                : DTS-HD MA 5.1
Язык                                     : Japanese
Default                                  : Нет
Forced                                   : Нет

Аудио #3
Идентификатор                            : 4
Формат                                   : PCM
Настройки формата                        : Little / Signed
Идентификатор кодека                     : A_PCM/INT/LIT
Продолжительность                        : 1 ч. 46 м.
Вид битрейта                             : Постоянный
Битрейт                                  : 2 304 Кбит/сек
Каналы                                   : 2 канала
Частота                                  : 48,0 КГц
Частота кадров                           : 32,000 кадра/сек (1500 SPF)
Битовая глубина                          : 24 бит
Размер потока                            : 1,71 Гбайт (5%)
Заголовок                                : PCM 2.0
Язык                                     : Japanese
Default                                  : Нет
Forced                                   : Нет

Текст #1
Идентификатор                            : 5
Формат                                   : ASS
Идентификатор кодека                     : S_TEXT/ASS
Идентификатор кодека/Информация          : Advanced Sub Station Alpha
Продолжительность                        : 1 ч. 44 м.
Битрейт                                  : 619 бит/сек
Count of elements                        : 4452
Метод сжатия                             : Без потерь
Размер потока                            : 475 Кбайт (0%)
Заголовок                                : YakuSub
Язык                                     : Russian
Default                                  : Нет
Forced                                   : Нет

Текст #2
Идентификатор                            : 6
Формат                                   : ASS
Идентификатор кодека                     : S_TEXT/ASS
Идентификатор кодека/Информация          : Advanced Sub Station Alpha
Продолжительность                        : 1 ч. 44 м.
Битрейт                                  : 470 бит/сек
Count of elements                        : 3367
Метод сжатия                             : Без потерь
Размер потока                            : 361 Кбайт (0%)
Заголовок                                : YakuSub (надписи)
Язык                                     : Russian
Default                                  : Нет
Forced                                   : Нет

Текст #3
Идентификатор                            : 7
Формат                                   : ASS
Идентификатор кодека                     : S_TEXT/ASS
Идентификатор кодека/Информация          : Advanced Sub Station Alpha
Продолжительность                        : 1 ч. 39 м.
Битрейт                                  : 102 бит/сек
Count of elements                        : 1125
Метод сжатия                             : Без потерь
Размер потока                            : 74,7 Кбайт (0%)
Заголовок                                : Jenia aka Zub
Язык                                     : Russian
Default                                  : Нет
Forced                                   : Нет

Меню
00:00:00.000                             : en:Chapter 1
00:08:20.291                             : en:Chapter 2
00:16:27.987                             : en:Chapter 3
00:30:32.580                             : en:Chapter 4
00:38:21.299                             : en:Chapter 5
00:51:33.090                             : en:Chapter 6
01:02:44.761                             : en:Chapter 7
01:13:36.370                             : en:Chapter 8
01:16:50.606                             : en:Chapter 9
01:23:53.695                             : en:Chapter 10
01:30:40.309                             : en:Chapter 11
01:38:55.304                             : en:Chapter 12
01:41:25.079                             : en:Chapter 13
Avdump
File: Gekijouban Blood-C. The Last Dark BDRemux 1080p [3df_voice].mkv
Duration: 01:46:03 (6363.36)
Track #1: video
lang: jpn (2)
codc: V_MPEG4/ISO/AVC -> H264/AVC (22)
reso: 1920x1080 -> 16:9
fram: 23.976 fps
rate: 36380 kbps (36380)
dura: 01:46:03 (6363.31)
size: 26.95 GB (28937205815)
Track #2: audio (3df_voice)
lang: rus -> Russian (15)
codc: A_FLAC -> Other (15)
chan: 2 -> Stereo
samp: 48000 Hz
rate: 764 kbps (763.74)
dura: 01:46:03 (6363.31)
size: 579.35 MB (607487649)
Track #3: audio (DTS-HD MA 5.1)
lang: jpn -> Japanese (2)
codc: A_DTS -> DTS (13)
chan: 6 -> 5.1 Surround
samp: 48000 Hz
rate: 3976 kbps (3975.62)
dura: 01:46:03 (6363.30)
size: 2.95 GB (3162254831)
Track #4: audio (PCM 2.0)
lang: jpn -> Japanese (2)
codc: A_PCM/INT/LIT -> PCM (10)
chan: 2 -> Stereo
samp: 48000 Hz
rate: 2304 kbps (2304.04)
dura: 01:46:03 (6363.34)
size: 1.71 GB (1832674999)
Track #5: subtitles (YakuSub)
lang: rus -> Russian (15)
type: S_TEXT/ASS -> ASS (5)
size: 475.00 KB (486396)
Track #6: subtitles (YakuSub (￐ᄑ￐ᄚ￐ᄡ￐﾿￐ᄌ￑チ￐ᄌ))
lang: rus -> Russian (15)
type: S_TEXT/ASS -> ASS (5)
size: 360.93 KB (369593)
Track #7: subtitles (Jenia aka Zub)
lang: rus -> Russian (15)
type: S_TEXT/ASS -> ASS (5)
size: 74.74 KB (76537)
Sizes: (check sanity)
disk: 32.17 GB (34543834184)
trac: 8.17 GB (8770752044) [based on track size]
bitr: 32.17 GB (34539622974) [based on bitrate]
tdif: 24.00 GB (25773082140) 74.60%
bdif: 4.02 MB (4211209) 0.01%
Gekijouban Blood-C. The Last Dark BDRemux 1080p (3df_voice).mkv.torrent
 СЕРЕБРЯНАЯ РАЗДАЧА! СКАЧАННОЕ ЗАСЧИТЫВАЕТСЯ ТОЛЬКО НАПОЛОВИНУ! 
Вечный
Трекер: Зарегистрирован

magnet ссылка

 


Скачать .torrent

81 KB

Статус: проверено (by Snowden в 27-Авг-20 00:24)
Зарегистрирован: 26-Авг-20 18:29
Скачан: 35 раз
Размер: 32.17 GB | 
Поблагодарили:
Скачать Кровь-С: Последняя тьма / Gekijouban Blood-C: The Last Dark (Сиотани Наоёси) [Movie][RAW][RUS(int) + JAP + SUB(int)][2012 г., приключения, мистика, драма][BDRemux][1080p] MVO [3df_voice] торрент
 


Похожие раздачи

leviaffun

post 27-Авг-20 10:45 (спустя 16 часов)

Это аниме к Blood + относится?

ReBootRus

post 27-Авг-20 19:41 (спустя 8 часов)

leviaffun, я точно не знаю, но подозреваю что нет, т.к. на world-art Кровь-С числится обособленно от Blood + (как развитие сюжета). Может знатоки меня поправят, самому интересно как там дело обстоит.

Текущее время: 26-Окт 09:18

Часовой пояс: GMT + 3



Вы не можете начинать темы
Вы не можете отвечать на сообщения
Вы не можете редактировать свои сообщения
Вы не можете удалять свои сообщения
Вы не можете голосовать в опросах
Вы не можете прикреплять файлы к сообщениям
Вы не можете скачивать файлы