Loading...
Error
 
Мини-чат
 

Скачать торрент Сквозь слёзы я притворяюсь кошкой | Nakitai Watashi wa Neko wo Kaburu (Дзюнъити Сато, Томотака Сибаяма) [2019 г., Аниме, мультфильм, мелодрама, фэнтези, приключения, WEB-DL 1080p] MVO | BaibaKo | Flarrow Films

 
Автор Сообщение

Ankiler

post 26-Июл-20 13:56

«Сквозь слёзы я притворяюсь кошкой | Nakitai Watashi wa Neko wo Kaburu»

pic
- Год выхода: 2020
- Страна: Япония
- Жанр: Аниме, мультфильм, мелодрама, фэнтези, приключения
- Продолжительность: 01:44:28
- Перевод: Профессиональный многоголосый [BaibaKo]
- Перевод: Профессиональный многоголосый [Flarrow Films]
- Субтитры: Russian (Forced, Full), English, Romanian
- Режиссер: Дзюнъити Сато, Томотака Сибаяма
- В ролях: Мираи Сида, Нацуки Ханаэ, Сусуму Тиба, Аяко Кавасуми, Минако Котобуки, Даисукэ Намикава, Хироаки Оги
- О фильме: На фестивале фейерверков обычная японская старшеклассница Миё, распереживавшись из-за развода родителей и несправедливости мира, только в сердцах пожелала этому миру исчезнуть, как тут же встретила загадочного продавца. Незнакомец подарил девушке волшебную маску, с помощью которой Миё теперь может превращаться в белую кошечку. В таком виде она проводит время с одноклассником Кэнто, ведь он, несмотря на все её знаки внимания в школе, упорно игнорирует девушку. Но тот странный тип с фестиваля преследует Миё и пытается убедить её остаться в кошачьем обличье навсегда.
- Качество: WEB-DL 1080p
- Формат: MKV
- Видео кодек: AVC
- Аудио кодек: E-AC-3, AC3
- Видео: AVC, 1920x1080 (16:9), 23.976 fps, 3 010 Kbps (0.061 bit/pixel)
- Аудио: 48 kHz, E-AC-3, 3/2 (L,C,R,l,r) + LFE ch, 640 kbps Russian | BaibaKo
- Аудио: 48 kHz, AC-3, 2/0 (L,R) ch, 320 kbps Russian | Flarrow Films
- Аудио: 48 kHz, E-AC-3, 3/2 (L,C,R,l,r) + LFE ch, 640 kbps Japanese | Original
Рейтинг
pic
MediaInfo

Код:

Nakitai.watashi.wa.neko.wo.kaburu.2020.1080p.NF.WEB-DL.2xRus.Jpn-NTG_TeamHD.mkv
Format                                   : Matroska
Format version                           : Version 4 / Version 2
File size                                : 3.36 GiB
Duration                                 : 1h 44mn
Overall bit rate mode                    : Variable
Overall bit rate                         : 4 601 Kbps
Movie name                               : Nakitai Watashi wa Neko o Kaburu (2020) - Release for TeamHD
Encoded date                             : UTC 2020-07-22 11:24:54
Writing application                      : mkvmerge v48.0.0 ('Fortress Around Your Heart') 64-bit
Writing library                          : libebml v1.4.0 + libmatroska v1.6.0

Video
ID                                       : 1
Format                                   : AVC
Format/Info                              : Advanced Video Codec
Format profile                           : [email protected]
Format settings, CABAC                   : Yes
Format settings, ReFrames                : 3 frames
Codec ID                                 : V_MPEG4/ISO/AVC
Duration                                 : 1h 44mn
Bit rate mode                            : Variable
Bit rate                                 : 3 010 Kbps
Maximum bit rate                         : 4 515 Kbps
Width                                    : 1 920 pixels
Height                                   : 1 080 pixels
Display aspect ratio                     : 16:9
Frame rate mode                          : Constant
Frame rate                               : 23.976 (24000/1001) fps
Color space                              : YUV
Chroma subsampling                       : 4:2:0
Bit depth                                : 8 bits
Scan type                                : Progressive
Bits/(Pixel*Frame)                       : 0.061
Stream size                              : 2.19 GiB (65%)
Writing library                          : x264 core 148 r2717 0d2410d
Encoding settings                        : cabac=1 / ref=3 / deblock=1:0:0 / analyse=0x1:0x111 / me=umh / subme=10 / psy=1 / psy_rd=1.00:0.00 / mixed_ref=1 / me_range=24 / chroma_me=1 / trellis=2 / 8x8dct=0 / cqm=0 / deadzone=21,11 / fast_pskip=1 / chroma_qp_offset=-2 / threads=8 / lookahead_threads=1 / sliced_threads=0 / nr=0 / decimate=1 / interlaced=0 / bluray_compat=0 / stitchable=1 / constrained_intra=0 / bframes=2 / b_pyramid=0 / b_adapt=2 / b_bias=0 / direct=3 / weightb=1 / open_gop=0 / weightp=2 / keyint=250 / keyint_min=23 / scenecut=0 / intra_refresh=0 / rc_lookahead=48 / rc=2pass / mbtree=1 / bitrate=3010 / ratetol=1.0 / qcomp=0.50 / qpmin=6 / qpmax=51 / qpstep=4 / cplxblur=20.0 / qblur=0.5 / vbv_maxrate=4515 / vbv_bufsize=6020 / nal_hrd=vbr / filler=0 / ip_ratio=1.40 / aq=1:1.00
Default                                  : Yes
Forced                                   : No

Audio #1
ID                                       : 2
Format                                   : E-AC-3
Format/Info                              : Audio Coding 3
Format settings, Endianness              : Big
Codec ID                                 : A_EAC3
Duration                                 : 1h 44mn
Bit rate mode                            : Constant
Bit rate                                 : 640 Kbps
Channel(s)                               : 6 channels
Channel positions                        : Front: L C R, Side: L R, LFE
Sampling rate                            : 48.0 KHz
Frame rate                               : 187.500 fps (256 spf)
Compression mode                         : Lossy
Stream size                              : 478 MiB (14%)
Title                                    : BaibaKo
Language                                 : Russian
Default                                  : Yes
Forced                                   : No

Audio #2
ID                                       : 3
Format                                   : AC-3
Format/Info                              : Audio Coding 3
Mode extension                           : CM (complete main)
Format settings, Endianness              : Big
Codec ID                                 : A_AC3
Duration                                 : 1h 44mn
Bit rate mode                            : Constant
Bit rate                                 : 320 Kbps
Channel(s)                               : 2 channels
Channel positions                        : Front: L R
Sampling rate                            : 48.0 KHz
Frame rate                               : 31.250 fps (1536 spf)
Compression mode                         : Lossy
Stream size                              : 239 MiB (7%)
Title                                    : Flarrow Films
Language                                 : Russian
Default                                  : No
Forced                                   : No

Audio #3
ID                                       : 4
Format                                   : E-AC-3
Format/Info                              : Audio Coding 3
Format settings, Endianness              : Big
Codec ID                                 : A_EAC3
Duration                                 : 1h 44mn
Bit rate mode                            : Constant
Bit rate                                 : 640 Kbps
Channel(s)                               : 6 channels
Channel positions                        : Front: L C R, Side: L R, LFE
Sampling rate                            : 48.0 KHz
Frame rate                               : 187.500 fps (256 spf)
Compression mode                         : Lossy
Stream size                              : 478 MiB (14%)
Language                                 : Japanese
Default                                  : No
Forced                                   : No

Text #1
ID                                       : 5
Format                                   : UTF-8
Codec ID                                 : S_TEXT/UTF8
Codec ID/Info                            : UTF-8 Plain Text
Duration                                 : 1h 44mn
Bit rate                                 : 2 bps
Count of elements                        : 51
Stream size                              : 1.61 KiB (0%)
Title                                    : Forced
Language                                 : Russian
Default                                  : Yes
Forced                                   : No

Text #2
ID                                       : 6
Format                                   : UTF-8
Codec ID                                 : S_TEXT/UTF8
Codec ID/Info                            : UTF-8 Plain Text
Duration                                 : 1h 44mn
Bit rate                                 : 96 bps
Count of elements                        : 1410
Stream size                              : 73.4 KiB (0%)
Language                                 : Russian
Default                                  : No
Forced                                   : No

Text #3
ID                                       : 7
Format                                   : UTF-8
Codec ID                                 : S_TEXT/UTF8
Codec ID/Info                            : UTF-8 Plain Text
Duration                                 : 1h 44mn
Bit rate                                 : 54 bps
Count of elements                        : 1391
Stream size                              : 41.2 KiB (0%)
Language                                 : English
Default                                  : No
Forced                                   : No

Text #4
ID                                       : 8
Format                                   : UTF-8
Codec ID                                 : S_TEXT/UTF8
Codec ID/Info                            : UTF-8 Plain Text
Duration                                 : 1h 44mn
Bit rate                                 : 51 bps
Count of elements                        : 1393
Stream size                              : 39.7 KiB (0%)
Language                                 : Romanian
Default                                  : No
Forced                                   : No

Скриншоты
Nakitai.watashi.wa.neko.wo.kaburu.2020.1080p.NF.WEB-DL.2xRus.Jpn-NTG_TeamHD.mkv.torrent
Трекер: Зарегистрирован

magnet ссылка

 


Скачать .torrent

34 KB

Статус: проверено (by Snowden в 26-Июл-20 14:38)
Зарегистрирован: 26-Июл-20 13:56
Скачан: 178 раз
Размер: 3.36 GB | 
Поблагодарили:
Скачать Сквозь слёзы я притворяюсь кошкой | Nakitai Watashi wa Neko wo Kaburu (Дзюнъити Сато, Томотака Сибаяма) [2019 г., Аниме, мультфильм, мелодрама, фэнтези, приключения, WEB-DL 1080p] MVO | BaibaKo | Flarrow Films торрент
 


Похожие раздачи

GuruBrain

post 26-Июл-20 17:40 (спустя 3 часа)

первые пол фильма скучно, но потом прикольно yes

Slat-ER2

post 26-Июл-20 18:17 (спустя 37 минут)

Хм. Раз дубляжа от реанимедии или студийной банды не вышло в день релиза, то можно и в фандабе посмотреть. Правда непонятно: с каких пор BaibaKo и Flarrow Films начали аниме озвучивать?)

Jordan45

post 29-Июл-20 06:09 (спустя 2 дня 11 часов)

наоборот первые пол фильма интересны, а потом соплятина начинается

Текущее время: 07-Авг 21:15

Часовой пояс: GMT + 3



Вы не можете начинать темы
Вы не можете отвечать на сообщения
Вы не можете редактировать свои сообщения
Вы не можете удалять свои сообщения
Вы не можете голосовать в опросах
Вы не можете прикреплять файлы к сообщениям
Вы не можете скачивать файлы