Loading...
Error
 
Мини-чат
 

Скачать торрент Извлекаем деньги из рынка акций через Интернет. Мастер-класс. (Альберт Азимов)[2008, Бизнес, экономика и финансы, DVDRip]

 
Автор Сообщение

STRELOK

post 16-Дек-12 18:14

Извлекаем деньги из рынка акций через Интернет. Мастер-класс.

pic
Год выпуска: 2008
Страна: Россия
Сайт производителя: http://www.azimovalbert.com
Тематика: Бизнес, экономика и финансы
Тип материала: Обучающее видео
Продолжительность: 15:40:09
Автор: Альберт Азимов
Язык: Русский - Профессиональный (одноголосый)
Субтитры: отсутствуют
Описание: Восьмилетний Опыт Торговли На Бирже От Профессионального Трейдера.
Минимум теории - максимум практики.

Курс будет полезен как для новичков, делающих свои первые шаги в интернет-трейдинге, так и для активных трейдеров, желающих повысить квалификацию, получить новые знания и опыт профессионала.

Торговые методы Альберта Азимова для применения в онлайновых торгах акциями, фьючерсами, валютными парами, а также покупок долей ПИФов. Теперь Вы всегда будете видеть прибыль на экране монитора, и знать, как её забрать.

Качество: DVDRip
Формат: WMV
Видео кодек: Windows Media
Аудио кодек: WMA
Видео: 1280x800 (1.6x1), 10.00fps, WMV, 250Kbps, 0.244 bit/pixel
Аудио: 44.1 kHz, WMA2 mono, 32 kbps
Содержание
1. Рынок сам показывает, где лучшие возможности
2. Свечные модели и Гэпы
3. Строим уровни и линии тренда
4. Стратегия торгов по MA 50
5. Метод анализа Heiken Ashi
6. Торгуем развороты трендов
7. Стратегия торговли 6-8 недель
8. Флэты и Аллигатор
9. Импульсная волна на 3,5,8 день
10. Parabol SaR and Fractals
11. Индикатор Обьемов торгов
12. Определение коррекций по сетке Fibo
13. Стратегии выхода из рынка с прибылью
14. Стратегии работы со стопами
15. Добавление (Пирамидинг)
16. Типы приказов брокеру
17. Торговый журнал трейдера
18. Правила управления капиталом
19. Stochastic oscillator
20. Осциллятор Уильямса
- Выбираем брокера 1
- Выбираем брокера 2
- Руководство по МТ4
- Создание портфеля ПИФов
- Терминал 1
- Терминал 2
- Украинский фондовый рынок
MediaInfo

Код:

General
Complete name                  : E:\Обучение\Forex_Akcii\7_Стратегия торговли 6-8 недель.wmv
Format                         : Windows Media
File size                      : 19.8 MiB
Duration                       : 30mn 19s
Overall bit rate mode          : Constant
Overall bit rate               : 91.3 Kbps
Maximum Overall bit rate       : 296 Kbps
Encoded date                   : UTC 2008-01-19 22:04:07.343

Video
ID                             : 2
Format                         : Windows Media
Codec ID                       : MSS2
Codec ID/Info                  : Windows Media 9
Description of the codec       : Windows Media Video 9 Screen
Duration                       : 30mn 20s
Bit rate mode                  : Constant
Bit rate                       : 250 Kbps
Width                          : 1 280 pixels
Height                         : 800 pixels
Display aspect ratio           : 1.600
Frame rate                     : 1.000 fps
Nominal frame rate             : 10.000 fps
Bit depth                      : 8 bits
Bits/(Pixel*Frame)             : 0.244
Stream size                    : 54.2 MiB
Language                       : English (US)

Audio
ID                             : 1
Format                         : WMA
Format version                 : Version 2
Codec ID                       : 161
Codec ID/Info                  : Windows Media Audio
Description of the codec       : Windows Media Audio 9 -  32 kbps, 44 kHz, mono (A/V) 1-pass CBR
Duration                       : 30mn 19s
Bit rate mode                  : Constant
Bit rate                       : 32.0 Kbps
Channel(s)                     : 1 channel
Sampling rate                  : 44.1 KHz
Bit depth                      : 16 bits
Stream size                    : 6.95 MiB (35%)
Language                       : English (US)


pic pic pic pic pic pic pic pic

picpicpic
Forex_Akcii.torrent
Трекер: Зарегистрирован

magnet ссылка

 


Скачать .torrent

15 KB

Статус: проверено (by MARKUS в 16-Дек-12 18:23)
Зарегистрирован: 16-Дек-12 18:14
Скачан: 119 раз
Размер: 625 MB | 
Поблагодарили:
Скачать Извлекаем деньги из рынка акций через Интернет. Мастер-класс. (Альберт Азимов)[2008, Бизнес, экономика и финансы, DVDRip] торрент
 


Похожие раздачи

maks13

post 26-Авг-16 14:06 (спустя 3 года 8 месяцев)

СПАСИБО ОГРОМНОЕ :thankyou:

добавлено спустя 59 секунд:

ВСТАНЬТЕ КТО НИТЬ НА РАЗДАЧУ ПОЖАЛУСТА

Pornoslonik78

post 26-Авг-16 17:52 (спустя 3 часа)

кто нибудь пробовал?есть прибыль?

zaxswert

post 29-Июл-20 09:48 (спустя 3 года 11 месяцев)

люди добрые,дайте скачать,прошу!

Текущее время: 08-Авг 18:23

Часовой пояс: GMT + 3



Вы не можете начинать темы
Вы не можете отвечать на сообщения
Вы не можете редактировать свои сообщения
Вы не можете удалять свои сообщения
Вы не можете голосовать в опросах
Вы не можете прикреплять файлы к сообщениям
Вы не можете скачивать файлы